Lorenzo Music | Sandy Kenyon | Hal Smith

Drama

Envy DVDScr Xvid IMAGiNE torrent [mazysmadhouse net]

  • Download 5x Faster
  • Download torrent
  • Direct Download
  • Rate this torrent +  |  -

Torrent info

Name:Envy DVDScr Xvid IMAGiNE torrent [mazysmadhouse net]

Total Size: 1.39 GB

Magnet: Magnet Link

Seeds: 0

Leechers: 0

Stream: Watch Full Movie @ Movie4u

Last Updated: 2017-10-01 21:26:33 (Update Now)

Torrent added: 2009-11-25 08:01:21



VPN For Torrents

Torrent Files List


Envy-IMAGiNE.NFO (Size: 1.39 GB) (Files: 102)

 Envy-IMAGiNE.NFO

4.79 KB

 envy IMAGINE.r00

14.31 MB

 envy IMAGINE.r01

14.31 MB

 envy IMAGINE.r02

14.31 MB

 envy IMAGINE.r03

14.31 MB

 envy IMAGINE.r04

14.31 MB

 envy IMAGINE.r05

14.31 MB

 envy IMAGINE.r06

14.31 MB

 envy IMAGINE.r07

14.31 MB

 envy IMAGINE.r08

14.31 MB

 envy IMAGINE.r09

14.31 MB

 envy IMAGINE.r10

14.31 MB

 envy IMAGINE.r11

14.31 MB

 envy IMAGINE.r12

14.31 MB

 envy IMAGINE.r13

14.31 MB

 envy IMAGINE.r14

14.31 MB

 envy IMAGINE.r15

14.31 MB

 envy IMAGINE.r16

14.31 MB

 envy IMAGINE.r17

14.31 MB

 envy IMAGINE.r18

14.31 MB

 envy IMAGINE.r19

14.31 MB

 envy IMAGINE.r20

14.31 MB

 envy IMAGINE.r21

14.31 MB

 envy IMAGINE.r22

14.31 MB

 envy IMAGINE.r23

14.31 MB

 envy IMAGINE.r24

14.31 MB

 envy IMAGINE.r25

14.31 MB

 envy IMAGINE.r26

14.31 MB

 envy IMAGINE.r27

14.31 MB

 envy IMAGINE.r28

14.31 MB

 envy IMAGINE.r29

14.31 MB

 envy IMAGINE.r30

14.31 MB

 envy IMAGINE.r31

14.31 MB

 envy IMAGINE.r32

14.31 MB

 envy IMAGINE.r33

14.31 MB

 envy IMAGINE.r34

14.31 MB

 envy IMAGINE.r35

14.31 MB

 envy IMAGINE.r36

14.31 MB

 envy IMAGINE.r37

14.31 MB

 envy IMAGINE.r38

14.31 MB

 envy IMAGINE.r39

14.31 MB

 envy IMAGINE.r40

14.31 MB

 envy IMAGINE.r41

14.31 MB

 envy IMAGINE.r42

14.31 MB

 envy IMAGINE.r43

14.31 MB

 envy IMAGINE.r44

14.31 MB

 envy IMAGINE.r45

14.31 MB

 envy IMAGINE.r46

14.31 MB

 envy IMAGINE.r47

14.31 MB

 envy IMAGINE.r48

14.31 MB

 envy IMAGINE.r49

14.31 MB

 envy IMAGINE.r50

14.31 MB

 envy IMAGINE.r51

14.31 MB

 envy IMAGINE.r52

14.31 MB

 envy IMAGINE.r53

14.31 MB

 envy IMAGINE.r54

14.31 MB

 envy IMAGINE.r55

14.31 MB

 envy IMAGINE.r56

14.31 MB

 envy IMAGINE.r57

14.31 MB

 envy IMAGINE.r58

14.31 MB

 envy IMAGINE.r59

14.31 MB

 envy IMAGINE.r60

14.31 MB

 envy IMAGINE.r61

14.31 MB

 envy IMAGINE.r62

14.31 MB

 envy IMAGINE.r63

14.31 MB

 envy IMAGINE.r64

14.31 MB

 envy IMAGINE.r65

14.31 MB

 envy IMAGINE.r66

14.31 MB

 envy IMAGINE.r67

14.31 MB

 envy IMAGINE.r68

14.31 MB

 envy IMAGINE.r69

14.31 MB

 envy IMAGINE.r70

14.31 MB

 envy IMAGINE.r71

14.31 MB

 envy IMAGINE.r72

14.31 MB

 envy IMAGINE.r73

14.31 MB

 envy IMAGINE.r74

14.31 MB

 envy IMAGINE.r75

14.31 MB

 envy IMAGINE.r76

14.31 MB

 envy IMAGINE.r77

14.31 MB

 envy IMAGINE.r78

14.31 MB

 envy IMAGINE.r79

14.31 MB

 envy IMAGINE.r80

14.31 MB

 envy IMAGINE.r81

14.31 MB

 envy IMAGINE.r82

14.31 MB

 envy IMAGINE.r83

14.31 MB

 envy IMAGINE.r84

14.31 MB

 envy IMAGINE.r85

14.31 MB

 envy IMAGINE.r86

14.31 MB

 envy IMAGINE.r87

14.31 MB

 envy IMAGINE.r88

14.31 MB

 envy IMAGINE.r89

14.31 MB

 envy IMAGINE.r90

14.31 MB

 envy IMAGINE.r91

14.31 MB

 envy IMAGINE.r92

14.31 MB

 envy IMAGINE.r93

14.31 MB

 envy IMAGINE.r94

14.31 MB

 envy IMAGINE.r95

14.31 MB

 envy IMAGINE.r96

14.31 MB

 envy IMAGINE.r97

14.31 MB

 envy IMAGINE.r98

6.71 MB

 envy IMAGINE.rar

14.31 MB

 envy IMAGINE.sfv

8.00 KB
 

tracker

leech seeds
 

Torrent description

********************************************************************************************************************
Envy.DVDScr.Xvid-IMAGiNE
********************************************************************************************************************

Ripper ...........: IMAGiNE IMDB Rating.......:5.4/10
Video Codec.......: XVID Release Date......:2005/2009
Audio Codec.......:MP3 Theatre Date......:NIL
Audio Bitrate.....:192 Kbps Runtime.......:1h 35mn
Subtitles.........:NIL Language..........:ENGLISH
Resolution...... 720 x 480 IMDb URL..........:http://www.imdb.com/title/tt0462275/


DETAILS:
General
Complete name : Envy IMAGINE.avi
Format : AVI
Format/Info : Audio Video Interleave
File size : 1.38 GiB
Duration : 1h 35mn
Overall bit rate : 2 070 Kbps
Writing application : VirtualDubMod 1.5.10.2 (build 2540/release)
Writing library : VirtualDubMod build 2540/release

Video
ID : 0
Format : MPEG-4 Visual
Format profile : [email protected]
Format settings, BVOP : Yes
Format settings, QPel : No
Format settings, GMC : No warppoints
Format settings, Matrix : Default (MPEG)
Codec ID : XVID
Codec ID/Hint : XviD
Duration : 1h 35mn
Bit rate : 1 869 Kbps
Width : 720 pixels
Height : 480 pixels
Display aspect ratio : 1.500
Frame rate : 23.976 fps
Standard : NTSC
Resolution : 24 bits
Colorimetry : 4:2:0
Scan type : Progressive
Bits/(Pixel*Frame) : 0.226
Stream size : 1.24 GiB (90%)
Writing library : XviD 1.2.1 (UTC 2008-12-04)

Audio
ID : 1
Format : AC-3
Format/Info : Audio Coding 3
Codec ID : 2000
Duration : 1h 35mn
Bit rate mode : Constant
Bit rate : 192 Kbps
Channel(s) : 2 channels
Channel positions : L R
Sampling rate : 48.0 KHz
Stream size : 131 MiB (9%)
Alignment : Split accross interleaves
Interleave, duration : 42 ms (1.00 video frame)
Interleave, preload duration : 500 ms



NOTES:

IMAGiNE bringing you another release....
This time it is a DVD Screener of Envy, Havnt done much besides contour and contrast on the video and very lil at that.
Thx to buttafly for the source.
Enjoy

SCREENS:

related torrents

Torrent name

health leech seeds Size
 


comments (0)

Main Menu

 

script data-cfasync="false" src="//d2ghscazvn398x.cloudfront.net/?cshgd=690275">