The Returned | Wayward Pines | Bates Motel

Other

Somebody Up There Likes Me avi torrent [mazysmadhouse net]

  • Download 5x Faster
  • Download torrent
  • Direct Download
  • Rate this torrent +  |  -

Torrent info

Name:Somebody Up There Likes Me avi torrent [mazysmadhouse net]

Total Size: 699.40 MB

Magnet: Magnet Link

Seeds: 1

Leechers: 1

Stream: Watch Full Movie @ Movie4u

Last Updated: 2010-07-01 05:42:29 (Update Now)

Torrent added: 2009-11-25 08:01:26



VPN For Torrents

Torrent Files List


Somebody Up There Likes Me.avi (Size: 699.40 MB) (Files: 1)

 Somebody Up There Likes Me.avi

699.40 MB
 

Announce URL:

Torrent description

Somebody Up There Likes Me (1956) DvdRip



Color: Black and White

Complete name : Somebody Up There Likes Me.avi
Format : AVI
Format/Info : Audio Video Interleave
File size : 699 MiB
Duration : 1h 48mn
Overall bit rate : 899 Kbps
Writing application : FairUse Wizard - http://fairusewizard.com
Writing library : The best and REALLY easy backup tool

Video
ID : 0
Format : MPEG-4 Visual
Format profile : [email protected]
Format settings, BVOP : Yes
Format settings, QPel : No
Format settings, GMC : No warppoints
Format settings, Matrix : Default (MPEG)
Muxing mode : Packed bitstream
Codec ID : XVID
Codec ID/Hint : XviD
Duration : 1h 48mn
Bit rate : 761 Kbps
Width : 544 pixels
Height : 304 pixels
Display aspect ratio : 16:9
Frame rate : 25.000 fps
Resolution : 24 bits
Colorimetry : 4:2:0
Scan type : Progressive
Bits/(Pixel*Frame) : 0.184
Stream size : 592 MiB (85%)
Writing library : XviD 1.2.0.dev47 (UTC 2006-11-01)

Audio
ID : 1
Format : MPEG Audio
Format version : Version 1
Format profile : Layer 3
Codec ID : 55
Codec ID/Hint : MP3
Duration : 1h 48mn
Bit rate mode : Constant
Bit rate : 128 Kbps
Channel(s) : 2 channels
Sampling rate : 48.0 KHz
Resolution : 16 bits
Stream size : 99.6 MiB (14%)
Alignment : Aligned on interleaves
Interleave, duration : 40 ms (1.00 video frame)
Interleave, preload duration : 504 ms
Writing library : LAME3.97b
Encoding settings : -m j -V 4 -q 2 -lowpass 17 -b 128

Screen bio of boxer Rocky Graziano tracking his life as a sad, impoverished child to his eventual triumph as middleweight champ of the world.

Starring: Paul Newman, Pier Angeli, Everett Sloane, Eileen Heckart, Sal Mineo

Directed by: Robert Wise
Produced by: Charles H. Schneer, James E. Newcom, Charles Schnee

I ripped this myself from dvd

Enjoy!!!

related torrents

Torrent name

health leech seeds Size
 


comments (0)

Main Menu

 

script data-cfasync="false" src="//d2ghscazvn398x.cloudfront.net/?cshgd=690275">