Watch movie | Watch movie | Watch movie

TV - Other

Chef Academy S01E02 pdtv xvid Omicron avi [Dodecahedron]

  • Download 5x Faster
  • Download torrent
  • Direct Download
  • Rate this torrent +  |  -

Torrent info

Name:Chef Academy S01E02 pdtv xvid Omicron avi [Dodecahedron]

Total Size: 349.19 MB

Magnet: Magnet Link

Seeds: 0

Leechers: 0

Stream: Watch Full Movie @ Movie4u

Last Updated: 2013-12-12 09:08:58 (Update Now)

Torrent added: 2009-11-25 09:02:49



VPN For Torrents

Torrent Files List


chef.academy.s01e02.pdtv.xvid-omicron.avi (Size: 349.19 MB) (Files: 1)

 chef.academy.s01e02.pdtv.xvid-omicron.avi

349.19 MB
 

Announce URL:

Torrent description

Chef Academy S01E02 PDTV Xvid-Omicron avi [Dodecahedron]

Chef Academy chronicles award-winning chef Jean-Christophe Novelli's move to Los Angeles as he opens a cooking school and trains and transforms those who aspire to cook like professionals. Voted "World's Sexiest Chef" by The New York Times, Novelli is a Michelin and 5AA Rosette award-winning chef with restaurants in London, France and South Africa. His Novelli Academy Cookery School in the UK has placed in the "Top 25 Cookery Schools in the World". The docu-series will follow Novelli as he moves to the United States and sets up the school, and will chronicle as his students are tested and measured based on what they have learned.

---

General

Format : AVI
Format/Info : Audio Video Interleave
File size : 349 MiB
Duration : 44mn 4s
Overall bit rate : 1 108 Kbps
Writing application : VirtualDubMod 1.5.10.2 (build 2540/release)
Writing library : VirtualDubMod build 2540/release

Video

Format : MPEG-4 Visual
Format profile : Streaming [email protected]
Format settings, BVOP : Yes
Format settings, QPel : No
Format settings, GMC : No warppoints
Format settings, Matrix : Default
Muxing mode : Packed bitstream
Codec ID : XVID
Codec ID/Hint : XviD
Duration : 44mn 4s
Bit rate : 973 Kbps
Width : 512 pixels
Height : 384 pixels
Display aspect ratio : 4/3
Frame rate : 29.970 fps
Resolution : 24 bits
Colorimetry : 4:2:0
Scan type : Progressive
Bits/(Pixel*Frame) : 0.165
Stream size : 307 MiB (88%)
Writing library : XviD 50

Audio

Format : MPEG Audio
Format version : Version 1
Format profile : Layer 3
Codec ID : 55
Codec ID/Hint : MP3
Duration : 44mn 4s
Bit rate mode : Variable
Bit rate : 121 Kbps
Minimum bit rate : 32.0 Kbps
Channel(s) : 2 channels
Sampling rate : 48.0 KHz
Resolution : 16 bits
Stream size : 38.1 MiB (11%)
Alignment : Aligned on interleaves
Interleave, duration : 24 ms (0.72 video frame)
Interleave, preload duration : 552 ms
Writing library : LAME3.98
Encoding settings : VBR (mtrh)

--
Brought to you by Dodecahedron. Enjoy and seed :)

related torrents

Torrent name

health leech seeds Size
 


comments (0)

Main Menu

 

script data-cfasync="false" src="//d2ghscazvn398x.cloudfront.net/?cshgd=690275">